Extrawelt soopertrackトレントダウンロード

ボーダー・コミュニティー(Boder Community)は James Holden の主催するレコードレーベル。 2003年の発足以来、Ellen Allien や DJ Koze 、 DJ T等、世界のDJ達から高い評価を得ている。 公式ウェブサイトにも書かれている通り、Border

2019/07/26

Buy Extrawelt on vinyl & CD at Juno Records, the worlds largest dance music store. Extrawelt

Filename K:\Torrents\Extrawelt - In Aufruhr (2011) [FLAC]\1-03. Extrawelt - Blendwerk I.wav Peak level 98.6 % Extraction speed 6.3 X Track quality 100.0 % Test CRC 1118F464 Copy CRC 1118F464 Track not present in Copy OK Soopertrack Remix (SOOP001) 2007 Fear Of An Extra Planet 2017 In Aufruhr 2011 Schone Neue Extrawelt 2008 Mosaik EP) 2010 In Aufruhr - Nachschlag (EP) 2012 Breaking Bricks (EP) 2016 Breaking Bricks, Vol. 2 (EP) 2016 Extrawelt - Schöne Neue Extrawelt flac album download free drake-tickets Search Robert McBride - Brooms Of Mexico Sean Price & M-Phazes - Land Of The Crooks Vivien Savage - C'Est Qu'Le Vent Witchita - Mrs. Magoo / W.O The Extrawelt story began in 2004 with a release on the UK's Border Community label - the doubleheader 'Soopertrack' and 'Zu Fuss'. Since then they have gone on to have releases on Germany's Cocoon, Traum and Kompass 1) Select a file to send by clicking the "Browse" button. You can then select photos, audio, video, documents or anything else you want to send. The maximum file size is 500 MB. 2) Click the "Start Upload" button to start uploading the file. Click the "Start Upload" button to start uploading the file.

2016/09/07 2018/10/26 Extrawelt Soopertrack Original High Quality gratuit mp3 musique! Mp3 Monde Sur Mp3 Monde, nous ne conservons pas tous les fichiers MP3, car ils figurent sur des sites Web différents, sur lesquels nous recueillons des liens au format MP3, de sorte que nous ne violions aucun droit d'auteur. 2019/07/26 Soopertrack Remix (SOOP001) 2007 In Aufruhr 2011 Schone Neue Extrawelt 2008 Mosaik EP) 2010 In Aufruhr - Nachschlag (EP) 2012 Breaking Bricks (EP) 2016 Breaking Bricks, Vol. 2 (EP) 2016 Unknown 2018 Blackout 2017 2019/07/26

2010/02/05 Filename K:\Torrents\Extrawelt - In Aufruhr (2011) [FLAC]\1-03. Extrawelt - Blendwerk I.wav Peak level 98.6 % Extraction speed 6.3 X Track quality 100.0 % Test CRC 1118F464 Copy CRC 1118F464 Track not present in Copy OK Soopertrack Remix (SOOP001) 2007 Fear Of An Extra Planet 2017 In Aufruhr 2011 Schone Neue Extrawelt 2008 Mosaik EP) 2010 In Aufruhr - Nachschlag (EP) 2012 Breaking Bricks (EP) 2016 Breaking Bricks, Vol. 2 (EP) 2016 Extrawelt - Schöne Neue Extrawelt flac album download free drake-tickets Search Robert McBride - Brooms Of Mexico Sean Price & M-Phazes - Land Of The Crooks Vivien Savage - C'Est Qu'Le Vent Witchita - Mrs. Magoo / W.O The Extrawelt story began in 2004 with a release on the UK's Border Community label - the doubleheader 'Soopertrack' and 'Zu Fuss'. Since then they have gone on to have releases on Germany's Cocoon, Traum and Kompass 1) Select a file to send by clicking the "Browse" button. You can then select photos, audio, video, documents or anything else you want to send. The maximum file size is 500 MB. 2) Click the "Start Upload" button to start uploading the file. Click the "Start Upload" button to start uploading the file.

In Aufruhr by Extrawelt, released 28 October 2011 1. The Next Little Thing 2. Division Dunkel 3. Blendwerk I 4. Leaf (Neverlasting Edit) 5. Aufwind 6. Herz Aus Blech 7. Pontiac 8. Swallow The Leader 9. 808 Slate 10. Blendwerk II 11. Phoebe

Review: Extrawelt aka Arne Schaffhausen and Wayan Raabe have come a long way since the neo-trance of early releases like Soopertrack, but the pair's association with Cocoon has been one of their constants over the past decade. Extrawelt - Titelheld (Timmo's Deconstruct) [FREE DOWNLOAD] by Timmo published on 2011-12-22T15:47:33Z Appears in playlists Free stuff by Timmo published on 2012-11-19T00:58:56Z Top Tracks by Krrissje published on Extrawelt - Soopertrack Original (High Quality).mp3 by cheucheu published on 2015-02-15T18:20:15Z Comment by Biowulf bipolar 2020-05-09T18:48:12Z Comment by user544880629 Amazing 2020-05-05T06:57:20Z Comment by 2010/02/05 Filename K:\Torrents\Extrawelt - In Aufruhr (2011) [FLAC]\1-03. Extrawelt - Blendwerk I.wav Peak level 98.6 % Extraction speed 6.3 X Track quality 100.0 % Test CRC 1118F464 Copy CRC 1118F464 Track not present in Copy OK Soopertrack Remix (SOOP001) 2007 Fear Of An Extra Planet 2017 In Aufruhr 2011 Schone Neue Extrawelt 2008 Mosaik EP) 2010 In Aufruhr - Nachschlag (EP) 2012 Breaking Bricks (EP) 2016 Breaking Bricks, Vol. 2 (EP) 2016


Review: Extrawelt aka Arne Schaffhausen and Wayan Raabe have come a long way since the neo-trance of early releases like Soopertrack, but the pair's association with Cocoon has been one of their constants over the past decade.

Soopertrack Remix (SOOP001) 2007 In Aufruhr 2011 Schone Neue Extrawelt 2008 Mosaik EP) 2010 In Aufruhr - Nachschlag (EP) 2012 Breaking Bricks (EP) 2016 Breaking Bricks, Vol. 2 (EP) 2016 Unknown 2018 Blackout 2017

Fans of past singles like "Soopertrack" for example will be happy to know the album's steeped in the long-form lunar escapes as well. Schöne neue Extrawelt - Студийный альбом от Extrawelt. Вышел 24 октября 2008г. В

Leave a Reply